Mandvd

Diskutiere Mandvd im Anwendungen Forum im Bereich Linux/Unix Allgemein; Ich habe ein Problem mit Mandvd.Gentoo x86_64 2007 kde 3.5.7[dvd-slideshow] ############### [dvd-slideshow] Creating ac3 audio... FFmpeg...

  1. #1 flammenflitzer, 18.08.2007
    Zuletzt bearbeitet: 18.08.2007
    flammenflitzer

    flammenflitzer Routinier

    Dabei seit:
    26.12.2003
    Beiträge:
    388
    Zustimmungen:
    0
    Ich habe ein Problem mit Mandvd.Gentoo x86_64 2007 kde 3.5.7
    Code:
    [dvd-slideshow] ###############
     [dvd-slideshow] Creating ac3 audio...
     FFmpeg version SVN-rUNKNOWN, Copyright (c) 2000-2007 Fabrice Bellard, et al.
     configuration: --prefix=/usr --libdir=${prefix}/lib --shlibdir=${prefix}/lib --incdir=${prefix}/include/ffmpeg --enable-shared --enable-libmp3lame --enable-gpl --enable-libfaad --mandir=${prefix}/share/man --enable-libvorbis --enable-pthreads --enable-libfaac --enable-xvid --enable-libdts --enable-amr_nb --enable-amr_wb --enable-pp --enable-libogg --enable-libgsm --enable-x264 --enable-liba52 --enable-libtheora --extra-cflags=-Wall -g -fPIC -DPIC --cc=ccache cc --enable-swscaler
     libavutil version: 49.4.0
     libavcodec version: 51.40.2
     libavformat version: 51.11.0
     built on Mar 29 2007 11:08:52, gcc: 4.1.2 20061115 (prerelease) (Debian 4.1.1-21)
     Input #0, wav, from 'pipe:':
     Duration: N/A, bitrate: 1536 kb/s
     Stream #0.0: Audio: pcm_s16le, 48000 Hz, stereo, 1536 kb/s
     Output #0, ac3, to '/tmp/Unnamed/dvd-slideshow_temp_22294/audio1.ac3':
     Stream #0.0: Audio: ac3, 48000 Hz, 5:1, 0 kb/s
     Stream mapping:
     Stream #0.0 -> #0.0
     Error while opening codec for output stream #0.0 - maybe incorrect parameters such as bit_rate, rate, width or height
     [dvd-slideshow] ERROR during ffmpeg execution!
     [dvd-slideshow] see /tmp/Unnamed/dvd-slideshow.log for details
     [dvd-slideshow] cleanup...
    http://www.kde-apps.org/content/show.php?content=38347&forumpage=49 Allerdings werde ich daraus nicht schlau. Muß ich jetzt qdvdauthor deinstallieren? Der zweite Ansatz ist
    Code:
    The Problem is, that ffmpeg uses a new syntax and the current dvd-slideshow is to old to know that. You have to change the dvd-slideshow script on line 3989 from
     audio_bitrate=224
     to 
     audio_bitrate=224k
    Wie bekomme ich das hin?
     
  2. #2 element, 18.08.2007
    element

    element Guest

    Moin

    du musst dir die Source downloaden und anschließend ManDVD selber kompilen

    mfg element
     
  3. #3 flammenflitzer, 18.08.2007
    flammenflitzer

    flammenflitzer Routinier

    Dabei seit:
    26.12.2003
    Beiträge:
    388
    Zustimmungen:
    0
    Habe ich.
     
  4. #4 element, 18.08.2007
    element

    element Guest

    hast du auch die beschreibene änderung vorgenommen?
     
  5. #5 flammenflitzer, 18.08.2007
    Zuletzt bearbeitet: 22.08.2007
    flammenflitzer

    flammenflitzer Routinier

    Dabei seit:
    26.12.2003
    Beiträge:
    388
    Zustimmungen:
    0
    Ich habe das gefunden
    Code:
      "The Problem is, that ffmpeg uses a new syntax and the current 
     dvd-slideshow is to old to know that. You have to change the 
     dvd-slideshow script on line 3989 from 
      audio_bitrate=224 
      to 
      audio_bitrate=224k"
    allerdings war das nur die halbe Miete. Man muß natürlich alle Einträge audio_bitrate=xxx audio_bitrate=xxxk ändern.
     
  6. #6 flammenflitzer, 22.08.2007
    flammenflitzer

    flammenflitzer Routinier

    Dabei seit:
    26.12.2003
    Beiträge:
    388
    Zustimmungen:
    0
    Allerdings wird die Slideshow nicht korrekt erstellt. Die Bilder für die Übergänge werden zwar erstellt, aber im Film fehlen die Übergänge.
     
Thema:

Mandvd

Die Seite wird geladen...

Mandvd - Ähnliche Themen

  1. Mandvd für Debian

    Mandvd für Debian: Hallo, wo bekomme ich Mandvd für Debian, habe zwar ein paar links gefunden, diese halte ich aber nicht für sehr vertrauenswürdig. Danke im vorraus.