Fragen zu ffmpeg

Dieses Thema im Forum "Anwendungen" wurde erstellt von @->-, 19.12.2008.

  1. @->-

    @->- Guest

    Huhu, ich brauche mal die Hilfe von den ffmpeg Experten :)

    Meine neue Kamera von JVC erstellt *.MOD Dateien. Diese enthalten im prinzip ein mpeg Video. Nur lassen sich diese Dateien nur schlecht oder garnicht mit Programmen wie OpenMovieEditor oder Cinelerra bearbeiten. Aus diesem Grund muss ich die Dateien in DV umwandeln. Ich habe zwar schon einiges zu ffmpeg gelesen aber weiß nicht so genau mit welchen Parametern ich das Video umwandel ohne die Qualität zu verschlechtern... Es soll also 1:1 von mpeg in dv umgewandelt werden.

    Hier mal ein paar Infos zum Format (ffmpeg -i)
    Code:
    Input #0, mpeg, from 'mov01c.mod':
      Duration: 00:00:15.80, start: 0.197522, bitrate: 9672 kb/s
        Stream #0.0[0x1e0]: Video: mpeg2video, yuv420p, 720x576 [PAR 64:45 DAR 16:9], 8900 kb/s, 25.00 tb(r)
        Stream #0.1[0x80]: Audio: ac3, 48000 Hz, stereo, 384 kb/s
    Must supply at least one output file
    
    Ich danke euch schon einmal :)

    In diesem Sinne
     
  2. Anzeige

    Schau dir mal diese Kategorie an. Dort findest du bestimmt etwas.
    Registrieren bzw. einloggen, um diese und auch andere Anzeigen zu deaktivieren
Thema:

Fragen zu ffmpeg

Die Seite wird geladen...

Fragen zu ffmpeg - Ähnliche Themen

  1. Sicherheitsfragen zu PHP-Anwendungen auf der Webseite

    Sicherheitsfragen zu PHP-Anwendungen auf der Webseite: Hallo miteinander, habe eine kleine Webseite (4 Jahre statisch, keine Sicherheitsprobleme bisher) und ich frage mich, wie sicher die Verwendung...
  2. Fragen zu find

    Fragen zu find: Hallo an alle, Ich bin ziemlich neu in der Linux Welt und habe paar frage Ich soll alle Datein im system finden die vor weniger als drei Tagen...
  3. Sicherung der Systempartition inkl. Bootloader + ein paar Verständnisfragen

    Sicherung der Systempartition inkl. Bootloader + ein paar Verständnisfragen: Hallo, ich habe 2 Mediacenter-PC im Wohn- und Schlafzimmer in denen jeweils Ubuntu auf einer SSD installiert wurde. Einer läuft mit einem Bios,...
  4. Freedomvote: Zehn Fragen über digitale Freiheiten für die Schweizer Parlamentswahl

    Freedomvote: Zehn Fragen über digitale Freiheiten für die Schweizer Parlamentswahl: Die FSFE Schweiz und die Swiss Open Systems User Group haben eine Kampagne gestartet, die die Kandidaten zu Themen wie Netzpolitik und freie...
  5. Mozilla: Fragen und Antworten zu WebExtensions

    Mozilla: Fragen und Antworten zu WebExtensions: Mozilla hat mit einem FAQ auf die Aufregung reagiert, die die Ankündigung der Einstellung der bisherigen Erweiterungsschnittstelle verursachte....